<svg xmlns="http://www.w3.org/2000/svg">
<defs>
<font
   id="FontID1"
   horiz-origin-x="0"
   horiz-origin-y="0"
   vert-origin-x="45"
   horiz-adv-x="637"
   vert-origin-y="90"
   fill-rule="nonzero"
   vert-adv-y="90"
   font-weight="700">
	<font-face
   font-family="DIN Pro Bold"
   id="font-face4">
		<font-face-src>
			<font-face-name
   name="DIN Pro Bold" />
		</font-face-src>
	</font-face>
   <missing-glyph
   id="missing-glyph8"><path
     d="m0 0z"
     id="path6" /></missing-glyph>
   <glyph
   horiz-adv-x="559"
   unicode="р"
   d="M509 260.998c0,86.9947 -3.99683,168.008 -53.9997,219.003 -28.9982,30.0045 -75.0043,46.9981 -125.999,46.9981 -55.9981,0 -93.9963,-14.9952 -129.996,-55.006l0 49.0107 -125.999 0 0 -712.002 129.996 0 0 237.003c32.9951,-38.0124 72.9917,-52.0012 125.999,-52.0012 50.995,0 97.001,16.9936 125.999,46.9981 50.0028,50.995 53.9997,133.001 53.9997,219.995l0 0zm-129.996 0c0,-84.0042 -10.0062,-149.994 -88.001,-149.994 -78.009,0 -88.001,65.9901 -88.001,149.994 0,84.0042 9.99206,149.002 88.001,149.002 77.9948,0 88.001,-64.998 88.001,-149.002l0 0z"
   id="glyph10" />
   <glyph
   horiz-adv-x="573"
   unicode="н"
   d="M501.006 0l0 521.005 -131.002 0 0 -197.007 -167.002 0 0 197.007 -131.002 0 0 -521.005 131.002 0 0 208.997 167.002 0 0 -208.997 131.002 0z"
   id="glyph12" />
   <glyph
   horiz-adv-x="685"
   unicode="Л"
   d="M602.004 0l0 712.002 -443.01 0 0 -323.006c0,-223 -50.995,-264.995 -121.988,-264.995l-20.0125 0 0 -124.001 55.006 0c147.996,0 221.002,82.0058 221.002,381.002l0 206.999 169.993 0 0 -588.001 139.01 0z"
   id="glyph14" />
   <glyph
   horiz-adv-x="542"
   unicode="0"
   d="M488.005 206.004l0 299.991c0,136.007 -100.007,212.004 -216.001,212.004 -116.004,0 -217.002,-75.9971 -217.002,-212.004l0 -299.991c0,-136.007 100.999,-212.004 217.002,-212.004 115.994,0 216.001,75.9971 216.001,212.004zm-130.007 0.992129c0,-60.0002 -33.997,-96.0003 -85.994,-96.0003 -52.0065,0 -87.005,36.0001 -87.005,96.0003l0 297.006c0,60.0002 34.9985,97.0019 87.005,97.0019 51.997,0 85.994,-37.0017 85.994,-97.0019l0 -297.006z"
   id="glyph16" />
   <glyph
   horiz-adv-x="762"
   unicode="ы"
   d="M687 0l0 521.005 -131.002 0 0 -521.005 131.002 0zm-192.004 167.002c0,97.9931 -70.9933,165.996 -174.004,165.996l-117.991 0 0 188.007 -131.002 0 0 -521.005 248.994 0c103.01,0 174.004,68.9948 174.004,167.002zm-197.999 63.9917c41.995,0 68.9948,-24.9872 68.9948,-63.9917 0,-39.9966 -26.9998,-64.998 -68.9948,-64.998l-97.9931 0 0 128.99 97.9931 0z"
   id="glyph18" />
   <glyph
   horiz-adv-x="534"
   unicode="к"
   d="M203.994 0l0 521.005 -130.988 0 0 -521.005 130.988 0zm336.003 0l-196 278.006 184.01 242.998 -152.007 0 -170.999 -248.002 179.007 -273.003 155.99 0z"
   id="glyph20" />
   <glyph
   horiz-adv-x="496"
   unicode="з"
   d="M444.002 154.005c0,55.9981 -32.0029,99.9915 -79.0011,118.998 41.995,20.9904 70.9933,63.9917 70.9933,113.002 0,91.9978 -89.9994,140.994 -190.997,140.994 -77.0027,0 -151.001,-14.9952 -210.003,-61.0012l71.9995 -79.9932c34.0014,23.9951 74.0121,35.9998 113.002,35.9998 53.0075,0 89.0073,-17.0078 89.0073,-53.0075 0,-34.9935 -28.0061,-57.0044 -71.0074,-57.0044l-76.9885 0 0 -92.99 78.9869 0c46.006,0 75.0043,-17.0078 75.0043,-55.9981 0,-40.0108 -44.9997,-59.0028 -91.9978,-59.0028 -48.0044,0 -95.0026,12.9968 -131.002,44.9997l-75.0043 -80.9995c62.0075,-55.9981 146.012,-73.998 228.003,-73.998 106.001,0 199.005,62.9996 199.005,160.001z"
   id="glyph22" />
   <glyph
   horiz-adv-x="579"
   unicode="д"
   d="M557.004 -127.998l0 242.998 -66.0043 0 0 406.004 -374.001 0 0 -159.008c0,-135.991 -23.9951,-198.991 -50.995,-246.995l-53.0075 0 0 -242.998 123.009 0 0 127.998 297.99 0 0 -127.998 123.009 0zm-196 242.998l-159.008 0c26.0077,52.9934 40.0108,118.006 40.0108,223l0 68.0027 118.998 0 0 -291.003z"
   id="glyph24" />
   <glyph
   horiz-adv-x="548"
   unicode="б"
   d="M280.005 111.004c-25.0014,0 -46.9981,7.00153 -62.0075,25.0014 -18.992,20.9904 -28.9982,61.0012 -28.9982,124.993 0,57.0044 10.0062,97.001 26.0077,118.006 15.9873,19.9983 38.9903,26.9998 64.998,26.9998 25.9935,0 48.9965,-8.00782 63.9917,-28.0061 17.0078,-21.0046 26.0077,-61.0012 26.0077,-117.991 0,-61.0012 -10.0062,-102.004 -26.9998,-123.009 -16.0015,-18.992 -37.9982,-25.9935 -62.9996,-25.9935zm1.99841 -116.999c61.9933,0 116.999,20.9904 153.991,59.9949 44.9997,46.9981 64.0059,104.995 64.0059,208.997 0,89.0073 -19.9983,168.008 -66.0043,211.01 -28.9982,25.9935 -62.9996,41.995 -127.998,41.995 -57.0044,0 -109.998,-26.0077 -129.996,-59.9949 0,62.9996 17.9999,94.9884 66.0043,119.99 58.9886,30.9967 146.99,25.0014 212.994,30.0045l0 111.996c-154.005,-0.99212 -248.002,-7.99365 -313,-57.9965 -66.0043,-52.0012 -82.9979,-111.996 -82.9979,-356.001 0,-97.001 10.9984,-179.999 41.995,-228.995 35.0077,-55.006 104.002,-80.9995 181.005,-80.9995z"
   id="glyph26" />
   <glyph
   horiz-adv-x="456"
   unicode="т"
   d="M444.994 406.004l0 115.001 -433.996 0 0 -115.001 152.999 0 0 -406.004 131.002 0 0 406.004 149.994 0z"
   id="glyph28" />
   <glyph
   horiz-adv-x="542"
   unicode="2"
   d="M492.002 0l0 116.996 -274.999 0 199.002 231.005c48.9923,56.9955 75.9971,93.9971 75.9971,163.002 0,127.994 -90.0003,206.996 -216.001,206.996 -122.004,0 -217.002,-78.0002 -217.002,-207.998l129.997 0c0,68.9955 44.0033,91.0019 87.005,91.0019 55.0017,0 86.0034,-36.0001 86.0034,-89.0082 0,-32.9954 -11.0079,-54.9923 -37.0017,-85.994l-266.004 -309.006 0 -116.996 433.003 0z"
   id="glyph30" />
   <glyph
   horiz-adv-x="568"
   unicode="п"
   d="M501.006 0l0 521.005 -429.007 0 0 -521.005 131.002 0 0 406.004 167.002 0 0 -406.004 131.002 0z"
   id="glyph32" />
   <glyph
   horiz-adv-x="640"
   unicode="К"
   d="M224.006 0l0 712.002 -139.01 0 0 -712.002 139.01 0zm420.999 0l-263.011 377.998 239.002 334.004 -165.996 0 -230.002 -339.007 250 -372.995 170.007 0z"
   id="glyph34" />
   <glyph
   horiz-adv-x="726"
   unicode="ф"
   d="M681.005 264.003c0,174.996 -98.0073,252.991 -253.005,261.99l0 186.008 -129.996 0 0 -186.008c-154.997,-8.99994 -253.005,-86.9947 -253.005,-261.99 0,-176.002 100.006,-260.006 253.005,-269.006l0 -185.994 129.996 0 0 185.994c152.999,8.99994 253.005,93.0041 253.005,269.006zm-131.002 -1.00629c0,-99.9915 -43.0013,-149.994 -124.001,-151.993l0 298.997c82.9979,-1.00629 124.001,-46.9981 124.001,-147.004zm-250 -151.993c-80.9995,1.99841 -124.001,52.0012 -124.001,151.993 0,100.006 41.0029,145.998 124.001,147.004l0 -298.997z"
   id="glyph36" />
   <glyph
   horiz-adv-x="542"
   unicode="4"
   d="M511.995 100.999l0 123.005 -64.9986 0 0 132.993 -124.999 0 0 -132.993 -148.999 0 243.998 487.995 -141.997 0 -243.998 -487.995 0 -123.005 290.996 0 0 -100.999 124.999 0 0 100.999 64.9986 0z"
   id="glyph38" />
   <glyph
   horiz-adv-x="685"
   unicode="П"
   d="M602.004 0l0 712.002 -519.006 0 0 -712.002 138.996 0 0 588.001 241 0 0 -588.001 139.01 0z"
   id="glyph40" />
   <glyph
   horiz-adv-x="480"
   unicode="с"
   d="M451.996 64.998l-88.001 87.0089c-26.9998,-29.0124 -49.9887,-41.0029 -83.99,-41.0029 -31.0108,0 -55.006,10.9984 -73.998,34.0014 -20.0125,25.0014 -29.0124,61.0012 -29.0124,115.993 0,55.006 8.99994,89.9994 29.0124,115.001 18.992,23.003 42.9871,34.0014 73.998,34.0014 34.0014,0 56.9902,-12.0046 83.99,-41.0029l88.001 88.001c-45.9918,48.0044 -99.9915,70.0011 -171.991,70.0011 -104.002,0 -233.006,-55.006 -233.006,-266.001 0,-210.996 129.004,-266.994 233.006,-266.994 71.9995,0 125.999,22.9888 171.991,70.9933z"
   id="glyph42" />
   <glyph
   horiz-adv-x="534"
   unicode="а"
   d="M467.005 0l0 343.004c0,122.002 -75.0043,183.996 -222.008,183.996 -86.9947,0 -135.991,-17.9999 -187,-73.998l82.0058 -80.9995c27.9919,32.0029 52.9934,44.9997 99.9915,44.9997 69.009,0 97.001,-25.0014 97.001,-82.0058l0 -25.9935 -120.996 0c-122.995,0 -179.999,-68.0027 -179.999,-151.001 0,-46.006 14.9952,-88.001 43.0013,-116.999 30.0045,-30.0045 73.998,-46.006 133.001,-46.006 59.9949,0 93.0041,15.0094 127.998,50.0028l0 -44.9997 127.005 0zm-130.01 192.004c0,-33.0092 -4.98894,-53.0075 -19.9983,-66.0043 -21.9967,-21.0046 -44.9997,-25.0014 -77.0027,-25.0014 -53.9997,0 -78.9869,23.003 -78.9869,59.0028 0,39.0045 24.9872,59.9949 76.9885,59.9949l98.9994 0 0 -27.9919z"
   id="glyph44" />
   <glyph
   horiz-adv-x="542"
   unicode="1"
   d="M378.001 0l0 711.999 -129.997 0 -145.002 -126 0 -139.994 145.002 125.991 0 -571.996 129.997 0z"
   id="glyph46" />
   <glyph
   horiz-adv-x="543"
   unicode="о"
   d="M492.006 260.998c0,93.9963 -12.0046,152.007 -59.0028,201.996 -33.0092,35.0077 -85.0105,64.0059 -161.999,64.0059 -77.0027,0 -127.998,-30.0045 -161.007,-64.0059 -46.9981,-49.9887 -59.0028,-107.999 -59.0028,-201.996 0,-93.9963 12.0046,-152.999 59.0028,-203.002 33.0092,-34.0014 84.0042,-63.9917 161.007,-63.9917 76.9885,0 128.99,29.9904 161.999,63.9917 47.9902,48.9965 59.0028,109.006 59.0028,203.002zm-130.01 0c0,-53.9997 -2.99053,-100.998 -29.9904,-126.991 -15.0094,-15.0094 -35.0077,-23.003 -61.0012,-23.003 -25.0014,0 -44.9997,7.99365 -60.0091,23.003 -26.9998,25.9935 -29.9904,72.9917 -29.9904,126.991 0,53.0075 2.99053,100.006 29.9904,125.999 15.0094,15.0094 35.0077,23.003 60.0091,23.003 25.9935,0 45.9918,-7.99365 61.0012,-23.003 26.9998,-25.9935 29.9904,-72.9917 29.9904,-125.999z"
   id="glyph48" />
   <glyph
   horiz-adv-x="231"
   unicode=" "
   d=""
   id="glyph50" />
   <glyph
   horiz-adv-x="570"
   unicode="л"
   d="M498.002 0l0 521.005 -381.002 0 0 -211.01c0,-187 -43.0013,-194.994 -86.9947,-194.994l-16.0015 0 0 -115.001 61.9933 0c106.001,0 167.002,57.9965 167.002,280.997l0 125.007 125.007 0 0 -406.004 129.996 0z"
   id="glyph52" />
   <glyph
   horiz-adv-x="523"
   unicode="?"
   d="M487.003 518c0,127.005 -98.0073,199.997 -211.01,199.997 -115.993,0 -209.989,-75.9964 -209.989,-199.997l129.996 0c0,46.006 26.9998,82.9979 79.9932,82.9979 50.0028,0 80.9995,-34.9935 80.9995,-81.9916 0,-22.0109 -12.9968,-46.006 -28.9982,-67.0106l-73.998 -95.0026c-25.9935,-33.9872 -37.9982,-60.987 -37.9982,-103.988l0 -30.0045 129.996 0 0 21.0046c0,16.9936 8.00782,37.9982 17.9999,50.995l74.0121 98.0073c27.9919,36.9919 48.9965,74.9901 48.9965,124.993zm-136.998 -518l0 133.001 -138.004 0 0 -133.001 138.004 0z"
   id="glyph54" />
   <glyph
   horiz-adv-x="528"
   unicode="ь"
   d="M496.003 167.002c0,97.9931 -70.0011,165.996 -172.997,165.996l-120.004 0 0 188.007 -131.002 0 0 -521.005 251.006 0c101.99,0 172.997,68.9948 172.997,167.002zm-197.007 63.9917c42.0092,0 68.0027,-24.9872 68.0027,-63.9917 0,-39.9966 -25.9935,-64.998 -68.0027,-64.998l-99.9915 0 0 128.99 99.9915 0z"
   id="glyph56" />
   <glyph
   horiz-adv-x="588"
   unicode="и"
   d="M516.994 0l0 521.005 -130.988 0 -183.004 -310.009 0 310.009 -131.002 0 0 -521.005 131.002 0 183.004 318.003 0 -318.003 130.988 0z"
   id="glyph58" />
   <glyph
   horiz-adv-x="593"
   unicode="ц"
   d="M570.993 -127.998l0 242.998 -69.987 0 0 406.004 -131.002 0 0 -406.004 -167.002 0 0 406.004 -131.002 0 0 -521.005 375.007 0 0 -127.998 123.987 0z"
   id="glyph60" />
   <glyph
   horiz-adv-x="548"
   unicode="е"
   d="M501.006 219.995l0 55.006c0,147.996 -82.0058,251.998 -227.011,251.998 -134.999,0 -226.997,-95.9947 -226.997,-266.001 0,-210.996 118.006,-266.994 241,-266.994 93.9963,0 145.005,27.9919 197.999,81.9916l-79.0011 77.0027c-32.9951,-32.0029 -61.0012,-48.9965 -117.991,-48.9965 -73.998,0 -114.009,48.0044 -114.009,115.993l326.011 0zm-128.012 89.0073l-197.999 0c1.00629,23.003 3.00471,36.9919 12.0046,55.9981 14.0031,30.9967 43.0013,53.9997 86.9947,53.9997 44.0076,0 73.0058,-23.003 87.0089,-53.9997 8.99994,-19.0062 10.9984,-32.9951 11.9905,-55.9981z"
   id="glyph62" />
   <glyph
   horiz-adv-x="494"
   unicode="у"
   d="M489.994 521.005l-136.998 0 -104.002 -322 -107.999 322 -136.998 0 178 -483.999 -21.9967 -64.0059c-12.9968,-37.0061 -26.9998,-46.9981 -64.998,-46.9981l-30.0045 0 0 -116.999 50.995 0c79.0011,0 123.009,32.0029 151.001,106.993l223 605.009z"
   id="glyph64" />
   <glyph
   horiz-adv-x="638"
   unicode="А"
   d="M633.001 0l-260.006 712.002 -108.991 0 -259 -712.002 144.991 0 43.0013 125.999 253.005 0 41.995 -125.999 145.005 0zm-224.006 242.998l-176.994 0 89.9994 259 86.9947 -259z"
   id="glyph66" />
   <glyph
   horiz-adv-x="550"
   unicode="в"
   d="M498.002 149.994c0,56.0122 -23.9951,92.012 -73.998,118.006 44.9997,25.9935 65.9901,61.0012 65.9901,109.998 0,87.0089 -62.9996,143.007 -160.993,143.007l-257.002 0 0 -521.005 266.001 0c97.9931,0 160.001,57.9965 160.001,149.994zm-199.997 275.001c40.9887,0 62.9996,-19.9983 62.9996,-54.9918 0,-35.9998 -22.0109,-57.0044 -62.9996,-57.0044l-97.001 0 0 111.996 97.001 0zm70.9933 -268c0,-36.9919 -23.9951,-61.0012 -64.998,-61.0012l-102.996 0 0 122.002 102.996 0c41.0029,0 64.998,-23.003 64.998,-61.0012z"
   id="glyph68" />
  </font>
  <font
   id="FontID0"
   horiz-origin-x="0"
   horiz-origin-y="0"
   vert-origin-x="45"
   horiz-adv-x="601"
   vert-origin-y="90"
   fill-rule="nonzero"
   vert-adv-y="90"
   font-weight="300">
	<font-face
   font-family="DINPro-Light"
   id="font-face71">
		<font-face-src>
			<font-face-name
   name="DINPro-Light" />
		</font-face-src>
	</font-face>
   <missing-glyph
   id="missing-glyph75"><path
     d="m0 0z"
     id="path73" /></missing-glyph>
   <glyph
   horiz-adv-x="539"
   unicode="р"
   d="M471.002 239.994c0,167.002 -59.9949,248.002 -183.996,248.002 -70.0011,0 -101.012,-19.9983 -139.01,-67.9885l0 61.9933 -50.995 0 0 -712.002 50.995 0 0 291.995c35.0077,-45.9918 67.0106,-67.9885 140.002,-67.9885 122.002,0 183.004,81.9916 183.004,245.989l0 0zm-50.995 0c0,-138.996 -42.0092,-200.989 -136.005,-200.989 -95.0026,0 -136.005,61.9933 -136.005,201.996 0,140.002 42.0092,201.996 136.005,201.996 95.0026,0 136.005,-61.9933 136.005,-203.002l0 0z"
   id="glyph77" />
   <glyph
   horiz-adv-x="513"
   unicode="0"
   d="M444.001 183.997l0 344.004c0,110.996 -76.9987,189.997 -187.002,189.997 -109.002,0 -187.002,-79.0018 -187.002,-189.997l0 -344.004c0,-110.996 78.0002,-189.997 187.002,-189.997 110.003,0 187.002,79.0018 187.002,189.997zm-51.0049 339.006l0 -334.007c0,-84.0003 -46.9986,-150 -135.997,-150 -88.9987,0 -135.997,66.0002 -135.997,150l0 334.007c0,84.0003 46.9986,150 135.997,150 88.9987,0 135.997,-66.0002 135.997,-150z"
   id="glyph79" />
   <glyph
   horiz-adv-x="408"
   unicode="т"
   d="M399.002 438.999l0 43.0013 -388.996 0 0 -43.0013 173.989 0 0 -438.999 51.0091 0 0 438.999 163.997 0z"
   id="glyph81" />
   <glyph
   horiz-adv-x="528"
   unicode="б"
   d="M460.996 241c0,91.0057 -19.9983,161.007 -62.9996,201.996 -30.9967,30.0045 -73.998,44.0076 -124.993,44.0076 -59.0028,0 -127.005,-32.0029 -149.002,-77.0027 0,89.9994 3.99683,156.996 48.9965,201.996 55.9981,55.9981 188.007,50.0028 253.005,55.9981l0 49.0107c-80.0074,-7.00153 -226.005,-5.00312 -293.001,-71.9995 -52.0012,-52.0012 -57.9965,-112.01 -57.9965,-288.012 0,-61.9933 -3.00471,-157.988 9.99206,-214.992 19.9983,-91.0057 89.0073,-147.996 185.002,-147.996 52.0012,0 100.006,18.992 132.009,52.0012 41.995,41.995 58.9886,98.9994 58.9886,194.994zm-50.995 -5.00312c0,-82.9979 -10.9984,-125.999 -41.995,-156.996 -24.0093,-25.0014 -61.0012,-39.9966 -98.0073,-39.9966 -36.9919,0 -72.9917,14.9952 -97.9931,39.9966 -31.0108,32.0029 -46.006,73.998 -46.006,158.994 0,85.0105 16.0015,133.001 46.006,164.012 25.0014,24.9872 61.0012,39.9966 97.9931,39.9966 37.0061,0 73.998,-15.0094 98.0073,-39.9966 31.9888,-32.0029 41.995,-79.0011 41.995,-166.01z"
   id="glyph83" />
   <glyph
   horiz-adv-x="559"
   unicode="п"
   d="M462.002 0l0 482 -365.001 0 0 -482 50.995 0 0 438.999 263.011 0 0 -438.999 50.995 0z"
   id="glyph85" />
   <glyph
   horiz-adv-x="513"
   unicode="2"
   d="M72.0002 0l377 0 0 44.9954 -315.998 0 266.996 349.003c36.0001,46.9986 49.0017,84.0003 49.0017,136.999 0,112.007 -74.0034,187.002 -188.004,187.002 -116.996,0 -187.994,-80.9955 -187.994,-187.002l50.9954 0c0,100.007 63.0049,142.007 136.999,142.007 87.005,0 137.008,-57.0049 137.008,-142.007 0,-40.9986 -12,-74.9955 -40.0064,-110.996l-285.998 -375.006 0 -44.9954z"
   id="glyph87" />
   <glyph
   horiz-adv-x="679"
   unicode="Д"
   d="M640.002 -179.999l0 228.003 -84.9963 0 0 663.997 -378.012 0 0 -260.006c0,-178 -24.9872,-297.99 -91.9978,-403.991l-64.998 0 0 -228.003 53.9997 0 0 179.999 512.005 0 0 -179.999 53.9997 0zm-138.996 228.003l-356.001 0c59.9949,99.9915 82.9979,226.997 82.9979,356.001l0 259.992 273.003 0 0 -615.993z"
   id="glyph89" />
   <glyph
   horiz-adv-x="513"
   unicode="7"
   d="M206.996 0l252.001 667.004 0 44.9954 -372.993 0 0 -157.002 50.9954 0 0 112.007 270.001 0 -252.001 -667.004 51.997 0z"
   id="glyph91" />
   <glyph
   horiz-adv-x="523"
   unicode="а"
   d="M431.005 0l0 329.993c0,101.012 -60.0091,158.002 -187,158.002 -78.009,0 -129.004,-16.9936 -170.007,-73.998l37.0061 -32.0029c29.9904,44.0076 64.998,61.0012 133.001,61.0012 97.9931,0 135.991,-40.9887 135.991,-117.991l0 -53.9997 -155.99 0c-105.009,0 -168.008,-51.0091 -168.008,-139.01 0,-35.9998 12.9968,-70.9933 35.0077,-93.9963 30.9967,-32.0029 70.9933,-43.9934 142.001,-43.9934 67.9885,0 105.987,12.9968 146.99,53.9997l0 -48.0044 51.0091 0zm-51.0091 167.994c0,-44.9997 -8.99994,-74.9901 -26.9998,-91.9978 -34.0014,-32.9951 -75.9964,-36.9919 -119.99,-36.9919 -87.0089,0 -126.013,29.9904 -126.013,93.9963 0,64.0059 40.0108,97.001 123.009,97.001l149.994 0 0 -62.0075z"
   id="glyph93" />
   <glyph
   horiz-adv-x="513"
   unicode="4"
   d="M375.998 116.996l94.9987 0 0 45.0049 -94.9987 0 0 225.998 -50.9954 0 0 -225.998 -228.001 0 261.998 549.999 -54.0002 0 -261.998 -549.999 0 -45.0049 282.001 0 0 -116.996 50.9954 0 0 116.996z"
   id="glyph95" />
   <glyph
   horiz-adv-x="525"
   unicode="о"
   d="M456.999 244.005c0,155.99 -70.0011,243.991 -194.002,243.991 -52.9934,0 -99.9915,-18.992 -133.993,-52.9934 -42.0092,-41.995 -60.0091,-100.998 -60.0091,-194.002 0,-93.0041 17.9999,-152.007 60.0091,-194.002 34.0014,-34.0014 80.9995,-52.9934 133.993,-52.9934 53.0075,0 100.006,18.992 134.007,52.9934 41.995,43.0013 59.9949,100.998 59.9949,197.007zm-50.995 -5.00312c0,-82.9979 -12.0046,-127.005 -43.0013,-159.008 -25.0014,-25.9935 -62.0075,-40.9887 -100.006,-40.9887 -37.9982,0 -74.9901,14.9952 -99.9915,40.9887 -32.0029,33.0092 -43.0013,76.0105 -43.0013,161.007 0,84.9963 11.9905,129.004 43.0013,161.007 25.0014,25.9935 61.9933,40.9887 99.9915,40.9887 37.9982,0 75.0043,-14.9952 100.006,-40.9887 32.0029,-33.0092 43.0013,-76.0105 43.0013,-163.005z"
   id="glyph97" />
   <glyph
   horiz-adv-x="513"
   unicode="1"
   d="M261.998 0l51.0049 0 0 711.999 -51.0049 0 -128.996 -110.996 0 -61.0018 128.996 114 0 -654.002z"
   id="glyph99" />
   <glyph
   horiz-adv-x="254"
   unicode=" "
   d=""
   id="glyph101" />
   <glyph
   horiz-adv-x="498"
   unicode="ь"
   d="M458.005 142.001c0,86.0026 -59.0028,142.001 -149.002,142.001l-161.007 0 0 197.999 -50.995 0 0 -482 212.002 0c89.9994,0 149.002,55.9981 149.002,142.001zm-51.0091 0c0,-64.0059 -36.9919,-98.9994 -106.001,-98.9994l-152.999 0 0 197.999 152.999 0c69.009,0 106.001,-35.9998 106.001,-98.9994z"
   id="glyph103" />
   <glyph
   horiz-adv-x="573"
   unicode="и"
   d="M476.005 0l0 482 -51.0091 0 -277 -408.002 0 408.002 -50.995 0 0 -482 50.995 0 277 408.002 0 -408.002 51.0091 0z"
   id="glyph105" />
   <glyph
   horiz-adv-x="513"
   unicode="+"
   d="M280.999 240.001l180.001 0 0 46.9986 -180.001 0 0 180.001 -46.9986 0 0 -180.001 -181.002 0 0 -46.9986 181.002 0 0 -181.002 46.9986 0 0 181.002z"
   id="glyph107" />
   <glyph
   horiz-adv-x="523"
   unicode="е"
   d="M455 230.002l0 23.003c0,145.998 -73.0058,234.991 -192.996,234.991 -120.004,0 -193.01,-91.9978 -193.01,-243.991 0,-165.004 71.0074,-250 206.999,-250 35.0077,0 65.0122,4.98894 91.0057,16.0015 28.9982,11.9905 46.006,23.9951 80.9995,57.9965l-37.9982 29.9904c-28.9982,-26.9998 -41.995,-36.9919 -64.0059,-45.9918 -19.9983,-8.00782 -41.995,-12.0046 -67.9885,-12.0046 -69.009,0 -116.999,28.9982 -141.009,88.001 -11.9905,28.0061 -14.9952,50.0028 -16.9936,102.004l334.996 0zm-50.995 41.0029l-284.001 0c1.99841,44.9997 5.99524,65.9901 16.9936,90.9916 21.9967,50.0028 69.009,80.9995 125.007,80.9995 63.9917,0 113.995,-37.9982 133.001,-102.996 5.99524,-19.0062 7.00153,-30.9967 8.99994,-68.9948z"
   id="glyph109" />
   <glyph
   horiz-adv-x="534"
   unicode="в"
   d="M462.994 131.002c0,61.0012 -36.9919,102.004 -89.9994,118.998 51.0091,16.0015 82.0058,53.9997 82.0058,107.999 0,75.0043 -55.9981,124.001 -138.996,124.001l-219.003 0 0 -482 223.992 0c89.0073,0 142.001,50.0028 142.001,131.002zm-58.9886 223.992c0,-52.9934 -35.0077,-83.99 -98.9994,-83.99l-157.01 0 0 167.994 157.01 0c62.9996,0 98.9994,-30.0045 98.9994,-84.0042zm7.99365 -219.995c0,-55.9981 -37.9982,-91.9978 -102.004,-91.9978l-161.999 0 0 185.002 161.999 0c64.0059,0 102.004,-37.0061 102.004,-93.0041z"
   id="glyph111" />
  </font>
</defs>
</svg>
